#TITLE:Nightmare;
#SUBTITLE:- Jigoku Shoujo Futakomori Opening;
#ARTIST:sNoW;
#TITLETRANSLIT:;
#SUBTITLETRANSLIT:;
#ARTISTTRANSLIT:;
#CREDIT:True Ancestor;
#BANNER:jigokufukatomoribanner.png;
#BACKGROUND:jigokufutakomori.png;
#LYRICSPATH:;
#CDTITLE:trueancestor.png;
#MUSIC:NIGHTMARE.MP3;
#OFFSET:0.000;
#SAMPLESTART:20.400;
#SAMPLELENGTH:29.200;
#SELECTABLE:YES;
#BPMS:0.000=70.005,15.833=72.000,16.000=140.010;
#STOPS:;
#BGCHANGES:0.000=JS Futakomori.avi=1.000=1=0=1,
191.750=jigokufutakomori.png=1.000=1=0=1,
99999=-nosongbg-=1.000=0=0=0 // don't automatically add -songbackground-
;
// cache tags:
#FIRSTBEAT:0.000;
#LASTBEAT:191.750;
#SONGFILENAME:songs/Otaku's Dream 3rd Anime Mix/[TrueAncestor] Nightmare - Jigoku Shoujo Futakomori OP/Jigoku Shoujo Futakomori - Nightmare.sm;
#HASMUSIC:1;
#HASBANNER:1;
#MUSICLENGTH:89.832;
// end cache tags

//---------------dance-single - ----------------
#NOTES:
     dance-single:
     :
     Challenge:
     10:
     1.000,1.000,1.000,0.980,0.518,444.000,118.000,88.000,0.000,0.000:







2002
0000
0000
0000
0000
0000
3003
0000
0220
0000
0000
0000
0300
0000
0230
0000
0000
0020
0000
0330
0202
0000
0000
0000
0000
0300
2000
0000
0000
0000
0000
3003
2200
0000
0000
0000
3300
0000
0011
0000
0000
0010
0000
0000
0110
0000
0000
2002
,
0000
0000
0000
0000
0000
0000
0000
0000
0000
0000
0000
0000
0000
0000
0000
0000
0000
0000
0000
0000
0000
0000
0000
0000
0003
0000
0000
0000
0000
0000
0000
0000
0002
0000
0000
0000
0000
0000
0000
0000
0000
0000
0000
0000
0000
0000
0000
0000
3003
0000
0000
0000
0000
0000
0000
0000
1100
0000
0000
0000
0000
0000
0000
0000
0000
0000
0000
0000
0020
0000
0000
0000
0000
0000
0000
0000
0000
0000
0000
0000
0230
0000
0000
0000
0000
0000
0000
0000
0300
0000
0000
0000
0044
0030
0000
0000
0000
0000
0000
0000
0000
0000
0000
0000
0000
0000
0000
0000
0000
0000
0000
0000
0000
0000
0000
0000
4000
0000
0000
0000
0000
0000
0000
0000
0000
0000
0000
0000
0000
0000
0000
0000
0000
0000
0000
0000
0000
0000
0000
0000
0000
0000
0000
0000
0000
0000
0000
0000
3000
0000
0000
0000
0040
0000
0000
0000
0000
0000
0000
0000
0000
0000
0000
0000
0000
0000
0000
0000
0000
0000
0000
0000
0000
0000
0000
0000
0000
0000
0000
0000
0000
0000
0000
0000
0000
0000
0000
0000
0000
0000
0000
0000
,
0000
0000
0000
0000
0033
0000
0000
0000
0000
0000
0000
0000
1100
0000
0000
0000
0000
0000
0000
0000
0000
0000
0000
0000
0100
0000
0000
0000
0000
0000
0000
0000
0000
0000
0000
0000
0022
0000
0000
0000
0000
0000
0000
0000
0000
0000
0000
0000
0000
0000
0000
0000
0000
0000
0033
0000
0000
0000
0000
0000
1100
0000
0000
0000
0000
0000
0000
0000
0000
0000
0000
0000
0010
0000
0000
0000
0000
0000
0000
0000
0000
0000
0000
0000
0100
0000
0000
0000
0000
0000
0000
0000
0000
0000
0000
0000
2200
0000
0000
0000
0000
0000
0000
0000
0000
0000
0000
0000
0000
0000
0000
0000
0000
0000
0300
0000
0000
0000
0000
0000
0010
0000
0000
0000
0000
0000
3000
0000
0000
0000
0000
0000
0022
0000
0000
0000
0000
0000
0000
0000
0000
0000
0000
0000
0000
0000
0000
0000
0000
0000
0033
0000
0000
0000
0000
0000
0200
0000
0000
0000
0000
0000
0000
0000
0000
0000
0000
0000
0320
0000
0000
0000
0000
0000
0030
0000
0000
0000
0000
0000
0101
0000
0000
0000
0000
0000
0000
0000
0000
0000
0000
0000
,
2200
0000
0000
3300
0100
0000
2002
0000
0000
0000
3003
0000
0020
0000
0000
0000
0230
0000
0000
0000
0320
0000
0030
0000
0110
0000
1100
0000
0022
0000
0000
0033
,
0101
0000
0001
0000
0100
0000
1000
0001
0100
0010
0100
0000
1000
0000
0101
0000
,
1100
0000
0100
0000
0001
0000
0010
0100
1000
0001
0100
0000
0010
0000
1010
0000
,
1100
0000
0001
0000
1000
0000
0100
0010
1000
0010
0001
0000
0100
0000
0011
0000
,
1010
0000
0010
0000
0100
0000
1000
0001
1000
0010
0100
0000
1000
0000
0101
0000
,
1010
0000
1000
0100
0010
0000
0001
0010
0100
0000
1000
0000
0001
0000
1010
0000
,
0011
0000
0010
1000
0100
0000
0010
0100
0001
0000
1000
0000
0100
0000
1100
0000
,
0101
0000
1000
0100
0010
0000
0010
0100
0002
0000
0000
0003
1000
0000
0001
0000
,
1001
0010
0001
1000
0110
1000
0001
0100
,
1010
0000
2100
0000
0000
0010
3001
0000
0101
0000
1001
0000
0110
0000
1000
0001
,
0100
0000
0100
1000
0001
0000
0001
0000
0011
0000
0110
0000
1100
0000
0010
0000
,
1001
0000
1000
0100
0001
0000
1000
0001
0010
0000
0100
0000
1001
0000
0001
0000
,
2200
0000
0000
0300
3010
0000
0100
0000
1010
0000
0100
0000
0011
0000
1000
0000
,
0110
0000
1000
0010
0100
0000
0100
0010
0001
0000
0001
0000
0100
0000
1001
0000
,
0110
0000
0010
1000
0100
0000
1000
0010
0001
0000
0100
0000
1000
0000
1001
0000
,
0110
0000
0001
1000
0010
0000
0010
0000
1100
0000
0001
0000
0100
0000
1000
0000
,
0101
0010
0100
1000
0110
1000
0010
0100
,
1001
0000
1000
0001
0010
0000
0100
0000
1000
0000
0010
0000
0100
0000
0101
0000
,
1010
0000
0100
1000
0001
0000
0010
0000
0001
0000
0100
0000
0010
0000
0011
0000
,
1100
0000
0100
0010
1000
0000
0001
0000
1001
0000
0010
0000
0100
0000
0001
0000
,
1100
0010
0100
0001
0011
1100
0011
1001
,
0020
0000
0000
0000
0230
0000
0000
0000
2300
0000
0000
0000
3002
0000
0000
0000
0203
0000
0000
0000
2300
0000
0000
0000
3002
0000
0000
0003
1010
0000
0000
0000
,
0101
0000
0000
0000
0000
0000
1000
0000
0000
0001
0000
0000
0200
0000
0000
0000
0000
0000
0320
0000
0000
0030
0000
0000
0022
0000
0000
0000
0000
0000
0030
0000
0000
1000
0000
0000
0023
0000
0000
0000
0030
0000
1100
0000
0000
0000
0000
0000
,
0101
0000
0000
0000
0000
0000
0002
0000
0000
1000
0000
0000
0203
0000
0000
0000
0300
0000
2100
0000
0000
0000
0000
0000
3002
0000
0000
0000
0003
0000
2100
0000
0000
0000
0000
0000
3020
0000
0000
0000
0030
0000
0101
0000
0000
0000
0000
0000
,
1001
0000
0000
0000
0002
0000
1000
0003
0200
0000
0000
0000
0302
0000
0000
0000
0203
0000
0000
0000
2300
0000
0000
0000
3010
0000
0100
0000
0001
0000
1000
0000
,
0001
0000
0100
0010
0001
0000
0010
0000
1000
0000
0010
0000
1000
0000
0001
0000
,
0220
0000
0000
0030
0310
0000
0100
1000
0001
0000
1001
0000
0011
0000
0101
0000
,
2200
0000
0000
3300
0101
0000
0100
0001
1000
0000
0001
0000
0100
0000
0001
0000
,
0100
1000
0001
0000
0001
1000
0010
0000
1001
0000
0110
0000
0010
1000
0001
0100
,
0001
0000
0000
0000
0200
0000
0000
0000
2300
0000
0000
3000
0002
0000
0000
0003
2200
0300
0000
0000
0002
0000
0000
0003
0200
0000
0000
0300
3020
0000
0000
0030
,
2002
3000
0000
0000
2000
0000
0000
3000
0020
0000
0000
0030
0200
0000
0000
0303
0120
0000
0000
0000
0200
0000
0000
0300
2000
0000
0000
3000
0031
0000
0100
0000
,
0020
0000
1030
0100
0011
1000
1001
0100
,
0011
0000
0100
0000
1010
0000
0100
0000
1001
0000
0100
0000
0110
0000
1000
0001
,
0100
0000
0010
0100
0001
0000
1000
0010
0001
0000
1010
0000
0101
0000
1000
0001
,
0100
0000
1000
0000
0100
1000
0001
0000
0100
0000
0010
0100
0001
0000
1000
0100
,
0010
0000
1100
0000
0011
0000
1000
0001
0010
0000
0100
0001
1000
0000
0110
0000
,
0001
0010
0100
0000
1000
0100
0010
0000
1100
0000
1001
0000
0100
0010
1000
0001
,
1100
0010
0101
1000
1100
0001
0101
0010
,
1100
0000
0010
0000
0101
0000
1000
0000
1100
0000
0001
0000
0101
0000
0001
0010
,
2000
0000
0000
0000
0000
0000
0100
0000
0000
0000
0000
0000
0100
0000
0000
0000
0000
0000
0200
0000
0000
0000
0000
0000
0000
0000
0000
0300
0000
0000
0200
0000
0000
0000
0000
0000
0000
0000
0000
0300
0000
0000
0200
0000
0000
0000
0300
0000
,
3010
0000
0000
0000
0000
0000
1000
0000
0000
0001
0000
0000
0100
0000
0000
0000
0000
0000
0120
0000
0000
0000
0000
0000
2000
0000
0000
0000
0000
0000
0030
0000
0000
0002
0000
0000
0000
0000
0000
3000
0003
0000
1100
0000
0000
0000
0000
0000
,
0110
0000
0001
0000
0100
0000
0100
0010
0100
0001
0100
0000
1000
0000
0011
0000
,
0110
0000
1000
0000
0010
0000
0001
0010
0100
0001
0100
0000
0010
0000
1001
0000
,
0110
0000
1000
0000
0001
0000
0010
0100
1000
0100
1000
0000
0001
0000
1100
0000
,
1001
0000
0100
0000
0001
0000
1000
0000
0001
1000
0010
0100
1000
0001
0010
0101
;

//---------------dance-single - ----------------
#NOTES:
     dance-single:
     :
     Hard:
     9:
     0.754,1.000,0.468,0.891,0.256,352.000,42.000,80.000,0.000,0.000:




2000
0000
0000
0000
0000
0000
0000
0000
0000
0000
0000
0000
0000
0000
0000
0000
0000
0000
0000
0000
0000
0000
0000
0000
0000
0000
0000
0000
0000
0000
0000
0000
0000
0000
0000
0000
0000
0000
0000
0000
0000
0000
0000
0000
0000
0000
0000
0200
,
0000
0000
0000
0000
0000
0000
0000
3300
2000
0000
0002
0000
3000
0200
0000
0000
,
0303
1000
0100
0002
0000
0013
0100
0010
2000
0000
3001
0200
0000
0310
0001
0010
,
0200
0000
0000
0000
0000
0000
0000
0000
0000
0000
0000
0000
0000
0000
0000
0000
0000
0000
0000
0000
0000
0000
0000
0000
0301
0000
0000
0000
0000
0000
0000
0000
0000
0000
0000
0000
2000
0000
0000
0000
0000
0000
0000
0000
0000
0000
0000
0000
0000
0000
0000
0000
0000
0000
0000
0000
0000
0000
0000
0000
0000
0000
0000
0000
3000
0000
0000
0000
0000
0000
0000
0000
0220
0000
0000
0000
0000
0000
0000
0000
0000
0000
0000
0000
0000
0000
0000
0000
0000
0000
0330
0000
0000
0000
0000
0000
2002
0000
0000
0000
0000
0000
0000
0000
0000
0000
0000
0000
0000
0000
0000
0000
0000
0000
3003
0000
0000
0000
0000
0000
2200
0000
0000
0000
0000
0000
0000
0000
0000
0000
0000
0000
0000
0000
0000
0000
0000
0000
3300
0000
0000
0000
0000
0000
0011
0000
0000
0000
0000
0000
0000
0000
0000
0000
0000
0000
1000
0000
0000
0000
0000
0000
0000
0000
0000
0000
0000
0000
0202
0000
0000
0000
0000
0000
0000
0000
0000
0000
0000
0000
0300
0000
0000
0000
0000
0000
0103
0000
0000
0000
0000
0000
,
1000
0100
0001
0100
1000
0100
0001
0010
,
0011
0000
0000
0001
1000
0000
0010
0000
0100
0000
1000
0000
0001
0000
0100
0000
,
0110
0000
0000
0100
1000
0000
1000
0000
0001
0000
0010
0000
0100
0000
1000
0000
,
1001
0000
0000
1000
0100
0000
0010
0000
1000
0000
0001
0000
0100
0000
1000
0000
,
0110
0000
0010
0100
0010
0000
0100
0000
0010
0000
1000
0000
0202
0000
0303
0000
,
0000
0000
1000
0001
1000
0000
0001
0000
1000
0000
0010
0000
2020
0000
3030
0000
,
0000
0000
1000
0010
1000
0000
0010
1000
0020
0000
0000
0000
0130
0000
0100
0000
,
0220
0000
0000
0030
0310
0000
0010
0000
0010
0000
0101
0000
2002
0000
0000
3003
,
0000
0000
2010
0000
0000
3010
0100
0000
0010
0000
1000
0000
0022
0000
0033
0000
,
0000
0000
0010
0001
0010
0000
0001
0000
0100
0000
0010
0000
0202
0000
0303
0000
,
0000
0000
1000
0100
0010
0000
0010
0100
1000
0000
1000
0000
1000
0000
1000
0000
,
1200
0000
0000
0000
0001
0000
0001
0000
1000
0000
1000
0300
0220
0000
0330
0000
,
0000
0000
0010
0001
0010
0000
1000
0000
0100
0000
0001
0000
0202
0000
0303
0000
,
0000
0000
1000
0010
1000
0000
1000
0000
0010
0000
0001
0000
0022
0000
0033
0000
,
0000
0000
0100
0010
0100
0000
1000
0000
0010
0000
1000
0000
0100
0000
0001
0000
,
0100
0010
0001
0010
0100
1000
0220
0330
,
0000
0000
0001
0010
0100
0000
1000
0000
0001
0000
1000
0000
2002
0000
3003
0000
,
0000
0000
1000
0100
0010
0000
1000
0000
0001
0000
1000
0000
2002
0000
3003
0000
,
0000
0000
0100
0001
0100
0000
0100
0000
0001
0000
0100
0000
1000
0000
0001
0000
,
1000
0010
1000
0010
0001
0100
2200
3300
,
0000
0000
1000
0000
0001
0000
0100
0000
0010
0000
1000
0000
2002
0000
0000
3003
,
0000
0000
0010
1000
0001
0000
0001
0000
2000
0000
0000
3100
0220
0000
0000
0330
,
0000
0000
1000
0000
0100
0000
0010
0000
0001
0000
0010
0000
2002
0000
0000
3003
,
0000
1000
0010
0001
0010
0001
0010
1000
,
0110
0100
0010
0002
0000
1003
0100
1000
,
0020
0000
0031
2000
0000
3010
1000
0001
,
2000
0000
0000
0000
3001
0000
0200
0000
0000
0000
0300
0000
2200
0000
0000
3300
,
0202
0000
0000
0303
2200
0000
0000
3300
0110
0000
0100
0000
1100
0000
0100
0000
,
1000
0000
0001
0000
0100
0000
0010
0000
0100
0010
1000
0000
0010
0000
1000
0000
,
0001
1000
0100
0000
0010
0000
0100
0000
0001
0010
0100
0000
1000
0000
0010
0001
,
0200
0000
1300
1000
0001
0100
1000
0100
,
1000
0001
0010
1000
0001
0100
0010
1000
,
0001
0001
0001
0001
1000
1000
1000
0010
,
0020
0000
0000
0030
0010
0000
0010
0000
1000
0000
0100
0000
1000
0000
0001
0000
,
0200
0000
0000
0000
1300
0000
0100
0000
1000
0000
0010
0000
0220
0000
0000
0330
,
2002
0000
0000
3003
0202
0000
0000
0303
1010
0000
0010
0000
0101
0000
1000
0000
,
0100
1000
0001
0100
0010
0100
0001
1000
,
0100
0000
1000
0000
0001
0000
0100
0000
0010
0000
0100
0000
1000
0000
0100
0010
,
0001
1000
0002
0020
0030
0020
0030
0020
,
0033
0000
1000
0001
1000
0000
0100
0000
0020
0000
0000
0032
0000
0000
1003
0010
,
0100
1000
0100
0001
0010
1000
0001
0100
,
1100
0000
0000
0100
0010
0000
1000
0000
0100
0000
1000
0000
0001
0000
0100
0000
,
1001
0000
0000
0001
1000
0000
1000
0000
0001
0000
0001
0000
0100
0000
0100
0000
,
0110
0000
0000
1000
0001
0000
1000
0000
0100
0010
0100
0010
0100
0010
0100
0010
;

//---------------dance-single - ----------------
#NOTES:
     dance-single:
     :
     Medium:
     6:
     0.394,0.560,0.089,0.278,0.028,215.000,8.000,25.000,0.000,0.000:



0000
0000
0000
0000
,
0000
0000
0000
0000
0000
0000
0000
0000
0020
0000
0230
0000
0300
0020
0000
0000
,
0030
0000
0100
0200
0000
0300
0010
0000
0010
0000
0010
0020
0000
0030
1000
0000
,
1000
0000
1000
2000
0000
3000
0001
0000
0001
0000
0001
0000
1000
2000
0000
3000
,
0110
0000
0100
0000
1000
0000
0001
0100
,
0001
0000
1001
0000
0100
0000
0100
0010
,
0100
0000
1001
0000
1000
0000
0100
0010
,
0100
0000
1100
0000
0100
0000
0001
0100
,
0001
0000
0000
0000
0010
0000
0000
0000
0010
0000
1000
0000
0002
0000
0000
0003
,
0000
0000
0000
0000
0100
0000
0000
0000
1000
0000
0001
0000
0200
0000
0000
0300
,
0000
0100
1000
0100
,
1000
0000
0000
0000
0100
0000
0000
0000
0100
0000
1000
0000
0002
0000
0000
0003
,
0000
0000
0000
0000
0010
0000
0000
0000
0010
0000
0100
0000
0020
0000
0000
0030
,
0000
0000
0000
0000
1000
0000
0000
0000
0001
0000
0100
0000
0002
0000
0000
0003
,
0000
1000
0010
0100
,
0001
0000
0000
0000
0100
0000
0000
0000
1000
0000
0001
0000
2000
0000
0000
3000
,
0000
0000
0000
0000
1000
0000
0000
0000
0001
0000
0100
0000
0020
0000
0000
0030
,
0000
0000
0000
0000
0100
0000
0000
0000
1000
0000
0010
0000
0200
0000
0000
0300
,
0000
0001
0100
1000
,
0100
0000
0000
0000
0001
0000
0000
0000
1000
0000
0010
0000
0200
0000
0000
0300
,
0000
0000
0000
0000
0010
0000
0000
0000
0100
0000
0001
0000
2000
0000
0000
3000
,
0000
0000
0000
0000
0001
0000
0000
0000
0001
0000
1000
0000
0020
0000
0000
0030
,
0000
0100
0010
1000
,
0001
0000
0000
0000
0100
0000
0000
0000
0010
0000
0100
0000
0002
0000
0000
0003
,
0000
1000
1000
0000
1000
0000
0100
0000
,
1000
0001
0001
0000
0001
0000
0001
0000
,
1000
0010
0010
0000
0010
0000
0010
0000
,
0100
1000
1000
0000
1000
0000
0100
0000
,
1000
0000
0000
0000
0010
0000
0020
0000
0000
0030
0000
0000
0100
0000
0000
0000
,
0100
0000
0000
0000
0100
0000
0200
0000
0000
0300
0000
0000
0001
0000
0000
0000
,
0001
0000
0000
0000
0001
0000
0002
0000
0000
0003
0000
0000
1000
0000
0000
0000
,
0001
1000
0010
0100
,
0000
0100
1000
0100
0010
0100
1000
0100
,
0010
0100
1000
0100
0010
0100
1000
0100
,
0010
0000
0000
0000
0001
0000
0002
0000
0000
0003
0000
0000
1000
0000
0000
0000
,
0001
0100
1000
0010
,
0100
0001
1000
0100
,
1000
0010
0100
0001
,
1000
0100
1000
0001
,
0100
0000
0000
0000
0100
0000
0000
0000
0100
0000
0200
0000
0000
0300
0000
0000
,
0010
0100
0001
1000
,
0100
0010
0100
0001
,
1000
1000
1000
1000
0000
1000
0000
2000
,
0000
3000
0000
0000
0010
0000
0000
0000
0100
0000
0000
0000
0010
0000
0000
0000
,
1001
0000
0100
0000
1000
0000
0010
0100
,
0001
0000
1100
0000
0100
0000
0010
1000
,
0001
0000
0101
0000
1000
0000
0100
0010
,
1000
0000
1001
0000
1000
0100
0010
0001
;

//---------------dance-single - ----------------
#NOTES:
     dance-single:
     :
     Easy:
     4:
     0.227,0.239,0.000,0.000,0.000,143.000,0.000,0.000,0.000,0.000:

0000
0000
0000
0000
,
0000
0000
0000
0000
,
0000
0000
0000
0000
,
0000
0000
0000
0000
,
1000
0100
1000
0001
,
0100
0010
1000
0100
,
1000
0001
1000
0001
,
0100
0001
1000
0100
,
0000
1000
1000
1000
,
0000
0001
0001
0001
,
0000
1000
0001
0001
,
1000
1000
0001
0001
,
0000
0100
0100
0100
,
0000
0010
0010
0010
,
0000
0100
1000
1000
,
0001
0001
1000
1000
,
0000
0001
0001
0001
,
0000
1000
1000
1000
,
0000
1000
0010
0010
,
0100
0100
0001
0001
,
0000
1000
1000
1000
,
0000
0100
0100
0100
,
0000
0010
0100
0100
,
0001
0001
1000
1000
,
0000
0010
0010
0010
,
0000
0001
0001
0001
,
0000
1000
0010
0010
,
0100
0100
0001
0001
,
0100
0000
0010
0000
,
0100
0000
1000
0000
,
0001
0000
0100
0000
,
1000
0001
1000
0100
,
1000
0000
0001
0000
,
0100
0000
0010
0000
,
1000
0000
0001
0000
,
1000
0100
1000
0010
,
0100
0000
0001
0000
,
0100
0000
1000
0000
,
0010
0000
0100
0000
,
0001
1000
0001
1000
,
0100
0010
1000
0100
,
1000
0001
0100
0010
,
0100
0001
1000
0100
,
1000
0001
0100
1000
,
0100
1000
0001
0100
,
0001
0010
0100
0001
,
0010
0001
0010
1000
,
0100
1000
0001
1000
;
